Details for this torrent 

Maze.Runner.The.Death.Cure.2018.DK.SWESUB.1080p.BluRay.x264-Stif
Type:
Video > HD - Movies
Files:
2
Size:
10.93 GiB (11738990528 Bytes)
Info:
IMDB
Spoken language(s):
English
Texted language(s):
Swedish, Danish
Uploaded:
2018-04-20 19:46:18 GMT
By:
Mr.Stifmeister VIP
Seeders:
1
Leechers:
0
Comments
0  

Info Hash:
911A881010E7C3DC85BE73BCC3A3541B7B6E8AD1




(Problems with magnets links are fixed by upgrading your torrent client!)
Maze.Runner.The.Death.Cure.2018.DK.SWESUB.1080p.BluRay.x264-Stiff
 
https://www.imdb.com/title/tt4500922/
Young hero Thomas embarks on a mission to find a cure for a deadly disease known as "The Flare". 


Retail danish and swedish subtitles.


Mediainfo:

Format : Matroska
Format version : Version 4 / Version 2
File size : 10.9 GiB
Duration : 2h 23mn
Overall bit rate : 10.9 Mbps
Writing application : mkvmerge v18.0.0 ('Apricity') 64-bit
Writing library : libebml v1.3.5 + libmatroska v1.4.8

Video
ID : 1
Format : AVC
Format/Info : Advanced Video Codec
Format profile : [email protected]
Format settings, CABAC : Yes
Format settings, ReFrames : 5 frames
Codec ID : V_MPEG4/ISO/AVC
Duration : 2h 23mn
Bit rate : 9 369 Kbps
Width : 1 920 pixels
Height : 800 pixels
Display aspect ratio : 2.40:1
Frame rate mode : Constant
Frame rate : 23.976 fps
Color space : YUV
Chroma subsampling : 4:2:0
Bit depth : 8 bits
Scan type : Progressive
Bits/(Pixel*Frame) : 0.254
Stream size : 9.41 GiB (86%)
Writing library : x264 core 155 r2901 7d0ff22
Language : English
Default : Yes

Audio
ID : 2
Format : DTS
Format/Info : Digital Theater Systems
Mode : 16
Format settings, Endianness : Big
Codec ID : A_DTS
Duration : 2h 23mn
Bit rate mode : Constant
Bit rate : 1 509 Kbps
Channel(s) : 6 channels
Channel positions : Front: L C R, Side: L R, LFE
Sampling rate : 48.0 KHz
Frame rate : 93.750 fps (512 spf)
Bit depth : 24 bits
Compression mode : Lossy
Stream size : 1.52 GiB (14%)
Language : English
Default : Yes

Text #1
ID : 3
Format : UTF-8
Codec ID : S_TEXT/UTF8
Codec ID/Info : UTF-8 Plain Text
Duration : 2h 22mn
Bit rate : 30 bps
Count of elements : 1394
Stream size : 31.6 KiB (0%)
Language : Swedish
Default : Yes

Text #2
ID : 4
Format : UTF-8
Codec ID : S_TEXT/UTF8
Codec ID/Info : UTF-8 Plain Text
Duration : 2h 21mn
Bit rate : 32 bps
Count of elements : 1088
Stream size : 33.2 KiB (0%)
Language : Danish
Default : No